+ ShareSpark.net
|- Recent Posts


Mastercard 10% Off

Recent Posts

Pages: 1 2 3 4 ... 10
1

File size: 28.9 MB

OfficeFIX includes three or all four Office file recovery programs. Ordering OfficeFIX your data will be safe and will save you more than 40% in the cost of the products. Fix Microsoft Office files in minutes. OfficeFIX bundles a set of tools intended for repairing corrupted Office documents and retrieving their content. The suite includes dedicated applications for recovering Word documents, Excel spreadsheets, Outlook mail files and Access databases.

The main interface of OfficeFIX provides one-click access to all the programs from within a single window. Each of the four applications rely on a user-friendly wizard, ready to assist you in carrying out a recovery task.

Data inside damaged DOC, DOCX and DOCM documents can be retrieved using WordFIX, which can save the output as Word, plain text or Unicode plain text files. It can process documents that are damaged due to virus infection and it is able to recover text content and formatting options. In case the file is severely corrupted, it might not succeed in performing a complete image and text retrieval.
ExcelFIX works in a similar way, allowing data recovery from damaged spreadsheet files. The steps you must follow are practically the same. Once the operation is completed, the application displays a summary containing the number of sheets, text, formula and other cells, charts and images. Additionally, it features editing options, which allows you to modify the content of the document without having Excel installed on your computer.

The database recovery tool comes by the name of AccessFIX and is capable of batch processing multiple files at once, while OutlookFIX can be used for retrieving accidentally deleted Outlook e-mail files or providing access to data inside corrupted PST files stored on your computer.
Providing options for fixing all major types of Office documents, OfficeFIX is an all-in-one suite that allows fast data recovery. Thanks to the wizard-like interfaces of each application it bundles, it can be used by both experts and beginners.

What programs can OfficeFIX include?
AccessFIX
AccessFIX is the best option for Microsoft® Access database recovery and undelete. Restores all the important elements in the file accurately.

ExcelFIX
ExcelFIX is the best solution for repairing corrupt Microsoft® Excel files and restoring the data. It is the only one that recovers all important details such as graphs and images.

WordFIX
WordFIX is the best Microsoft® Word document recovery program. All the data is restored in seconds.

OutlookFIX
OutlookFIX is the best Microsoft® Outlook PST file recovery and undelete program. It is the only one that recovers all the elements and important details.

Why is OfficeFIX a safe solution?
Confidentiality. With OfficeFIX your files never leave your PC. The entire recovery process is performed safely in your own computer.
Free trial. You will be able to evaluate the programs before you purchase.
Money-back guarantee. You will have your data or your money back.
Qualified support. If you need assistance at any time we will be there to help you. We are proud to provide the absolute best personalized and qualified customer and technical support.
Virus-free and spyware free. All our products are digitally signed to guarantee their source.
Without changing the original. None of the programs included in OfficeFIX will modify in any way the original file being recovered, guaranteeing there will be no further damage to the files.
An established solution. We have been working on and improving the OfficeFIX suite for eight years. Our customers' feedback and our expertise allows us to constantly increase the recovery capabilities of all our products for the new corruption types that arise.

Whats New:
Updates: official site does not provide any info about changes in this version.

HOMEPAGE
Code: [Select]
http://www.cimaware.com





Download From Rapidgator

Code: [Select]
http://rapidgator.net/file/363d1327a05a8a584d8a64a3e5cc13cd




Download From Uptobox

Code: [Select]
http://uptobox.com/nsvif7jdlgq7

2
Honey 2 (2011) 720p BluRay x264 Eng-Hindi AC3 DD 5.1 [Team SSX]









General


Format : Matroska
Format version : Version 4
File size : 1.38 GiB
Duration : 1 h 50 min
Overall bit rate : 1 787 kb/s

Video
ID : 1
Format : AVC
Format/Info : Advanced Video Codec
Format profile : [email protected]
Format settings : CABAC / 9 Ref Frames
Format settings, CABAC : Yes
Format settings, RefFrames : 9 frames
Codec ID : V_MPEG4/ISO/AVC
Duration : 1 h 50 min
Bit rate : 1 020 kb/s
Width : 1 280 pixels
Height : 720 pixels
Display aspect ratio : 16:9
Frame rate mode : Constant
Frame rate : 23.976 (24000/1001) FPS
Color space : YUV
Chroma subsampling : 4:2:0
Bit depth : 8 bits
Scan type : Progressive
Bits/(Pixel*Frame) : 0.046
Stream size : 805 MiB (57%)
Title : Team SSX
Writing library : x264 core 148 r2795 aaa9aa8
Default : Yes
Forced : No

Audio #1
ID : 2
Format : AAC LC
Format/Info : Advanced Audio Codec Low Complexity
Codec ID : A_AAC-2
Duration : 1 h 50 min
Bit rate : 128 kb/s
Channel(s) : 2 channels
Channel layout : L R
Sampling rate : 48.0 kHz
Frame rate : 46.875 FPS (1024 SPF)
Compression mode : Lossy
Delay relative to video : -43 ms
Stream size : 101 MiB (7%)
Title : Team SSX
Default : No
Forced : No

Audio #2
ID : 3
Format : E-AC-3
Format/Info : Enhanced AC-3
Commercial name : Dolby Digital Plus
Codec ID : A_EAC3
Duration : 1 h 50 min
Bit rate mode : Constant
Bit rate : 640 kb/s
Channel(s) : 6 channels
Channel layout : L R C LFE Ls Rs
Sampling rate : 48.0 kHz
Frame rate : 31.250 FPS (1536 SPF)
Compression mode : Lossy
Delay relative to video : 1 s 512 ms
Stream size : 507 MiB (36%)
Title : Team SSX
Language : Hindi
Service kind : Complete Main
Default : Yes
Forced : Yes

Text
ID : 4
Format : UTF-8
Codec ID : S_TEXT/UTF8
Codec ID/Info : UTF-8 Plain Text
Duration : 1 h 48 min
Bit rate : 53 b/s
Count of elements : 1515
Stream size : 43.0 KiB (0%)
Title : Team SSX
Default : Yes
Forced : No





 :ss:














 :download:









3
PC Applications / Isoo Backup 2.3.0.674
« Last post by BaDshaH786 on 11 minutes ago »

File size: 24 MB

Trusted backup software designed for Windows PC and Server users to backup & restore system, settings and applications.

Windows Backup
Isoo Backup helps to safely backup Windows including system files, installed applications, boot sectors and customer settings to one image file so that you can restore computer when system slows down or fails to boot.

System Restore
Restore system from a previous backup image to solve system problems such as Blue Screen, OS cannot boot, virus infection, system instability, low running speed, system crash, system data loss, etc. without reinstalling Windows.

Partition Backup
Isoo Backup enables you to back up non-system partition/volume. All data on the selected drive will be packaged into a single image file so as to safeguare against data loss caused by partition corruption or accidental deletion.

Whats New
Code: [Select]
http://www.isoo.com/version-history.php
HOMEPAGE
Code: [Select]
http://www.isoo.com/





Download From Rapidgator

Code: [Select]
http://rapidgator.net/file/0eabebe23fe4ca1ab4a507d9d640805d




Download From Uptobox

Code: [Select]
http://uptobox.com/ky3h5s6qrk9p


5
Honey 2 (2011) 1080p BluRay x264 Eng-Hindi AC3 DD 5.1 [Team SSX]










General

Format : Matroska
Format version : Version 4
File size : 2.60 GiB
Duration : 1 h 50 min
Overall bit rate : 3 363 kb/s


Video
ID : 1
Format : AVC
Format/Info : Advanced Video Codec
Format profile : [email protected]
Format settings : CABAC / 4 Ref Frames
Format settings, CABAC : Yes
Format settings, RefFrames : 4 frames
Codec ID : V_MPEG4/ISO/AVC
Duration : 1 h 50 min
Bit rate : 2 500 kb/s
Width : 1 920 pixels
Height : 1 080 pixels
Display aspect ratio : 16:9
Frame rate mode : Constant
Frame rate : 23.976 (23976/1000) FPS
Color space : YUV
Chroma subsampling : 4:2:0
Bit depth : 8 bits
Scan type : Progressive
Bits/(Pixel*Frame) : 0.050
Stream size : 1.93 GiB (74%)
Title : Team SSX
Default : Yes
Forced : No

Audio #1
ID : 2
Format : AAC LC
Format/Info : Advanced Audio Codec Low Complexity
Codec ID : A_AAC-2
Duration : 1 h 50 min
Bit rate : 224 kb/s
Channel(s) : 6 channels
Channel layout : C L R Ls Rs LFE
Sampling rate : 48.0 kHz
Frame rate : 46.875 FPS (1024 SPF)
Compression mode : Lossy
Delay relative to video : -43 ms
Stream size : 177 MiB (7%)
Title : Team SSX
Language : English
Default : No
Forced : No

Audio #2
ID : 3
Format : E-AC-3
Format/Info : Enhanced AC-3
Commercial name : Dolby Digital Plus
Codec ID : A_EAC3
Duration : 1 h 50 min
Bit rate mode : Constant
Bit rate : 640 kb/s
Channel(s) : 6 channels
Channel layout : L R C LFE Ls Rs
Sampling rate : 48.0 kHz
Frame rate : 31.250 FPS (1536 SPF)
Compression mode : Lossy
Delay relative to video : 1 s 507 ms
Stream size : 507 MiB (19%)
Title : Team SSX
Language : Hindi
Service kind : Complete Main
Default : Yes
Forced : Yes

Text
ID : 4
Format : UTF-8
Codec ID : S_TEXT/UTF8
Codec ID/Info : UTF-8 Plain Text
Duration : 1 h 48 min
Bit rate : 53 b/s
Count of elements : 1513
Stream size : 43.0 KiB (0%)
Title : Team SSX
Default : Yes
Forced : No





 :ss:
















 :download:










6
Identity Thief (2013) UNRATED 720p BluRay x264 Eng-Hindi AC3 DD 5.1 [Team SSX]








General

Format : Matroska
Format version : Version 4
File size : 1.39 GiB
Duration : 2 h 0 min
Overall bit rate : 1 649 kb/s


Video
ID : 1
Format : AVC
Format/Info : Advanced Video Codec
Format profile : [email protected]
Format settings : CABAC / 5 Ref Frames
Format settings, CABAC : Yes
Format settings, RefFrames : 5 frames
Codec ID : V_MPEG4/ISO/AVC
Duration : 2 h 0 min
Bit rate : 910 kb/s
Width : 1 280 pixels
Height : 544 pixels
Display aspect ratio : 2.35:1
Frame rate mode : Constant
Frame rate : 23.976 (24000/1001) FPS
Original frame rate : 23.976 (23976/1000) FPS
Color space : YUV
Chroma subsampling : 4:2:0
Bit depth : 8 bits
Scan type : Progressive
Bits/(Pixel*Frame) : 0.055
Stream size : 785 MiB (55%)
Title : Team SSX
Default : Yes
Forced : No
Color range : Limited
Color primaries : BT.709
Matrix coefficients : BT.709

Audio #1
ID : 2
Format : AAC LC
Format/Info : Advanced Audio Codec Low Complexity
Codec ID : A_AAC-2
Duration : 2 h 0 min
Bit rate : 96.0 kb/s
Channel(s) : 2 channels
Channel layout : L R
Sampling rate : 48.0 kHz
Frame rate : 46.875 FPS (1024 SPF)
Compression mode : Lossy
Delay relative to video : -83 ms
Stream size : 82.7 MiB (6%)
Title : Team SSX
Language : English
Default : No
Forced : No

Audio #2
ID : 3
Format : AC-3
Format/Info : Audio Coding 3
Commercial name : Dolby Digital
Codec ID : A_AC3
Duration : 2 h 0 min
Bit rate mode : Constant
Bit rate : 640 kb/s
Channel(s) : 6 channels
Channel layout : L R C LFE Ls Rs
Sampling rate : 48.0 kHz
Frame rate : 31.250 FPS (1536 SPF)
Bit depth : 16 bits
Compression mode : Lossy
Delay relative to video : -83 ms
Stream size : 552 MiB (39%)
Title : Team SSX
Language : Hindi
Service kind : Complete Main
Default : Yes
Forced : Yes





 :ss:











 :download:








7
Quote
Mission Impossible Rogue Nation (2015) Hindi Tamil & Telugu Org Untouched DD+ Audio @ 640Kbps First On Net by ~sankarn~

If you like my post leave one valuable comment, hit thank you and possitive repute.

Wherever you share give the proper credits to the ~sankarn~  :hukka:

Hindi


Tamil


Telugu


:thankyou:
8
Identity Thief (2013) UNRATED 1080p.BluRay x264 Eng-Hindi AC3 DD 5.1 [Team SSX]









General

Format : Matroska
Format version : Version 4
File size : 2.39 GiB
Duration : 2 h 0 min
Overall bit rate : 2 835 kb/s


Video
ID : 1
Format : AVC
Format/Info : Advanced Video Codec
Format profile : [email protected]
Format settings : CABAC / 5 Ref Frames
Format settings, CABAC : Yes
Format settings, RefFrames : 5 frames
Codec ID : V_MPEG4/ISO/AVC
Duration : 2 h 0 min
Bit rate : 2 097 kb/s
Width : 1 920 pixels
Height : 816 pixels
Display aspect ratio : 2.35:1
Frame rate mode : Constant
Frame rate : 23.976 (24000/1001) FPS
Original frame rate : 23.976 (23976/1000) FPS
Color space : YUV
Chroma subsampling : 4:2:0
Bit depth : 8 bits
Scan type : Progressive
Bits/(Pixel*Frame) : 0.056
Stream size : 1.77 GiB (74%)
Title : Team SSX
Writing library : x264 core 132 r2 76a5c3a
Default : Yes
Forced : No
Color range : Limited
Color primaries : BT.709
Matrix coefficients : BT.709

Audio #1
ID : 2
Format : AAC LC
Format/Info : Advanced Audio Codec Low Complexity
Codec ID : A_AAC-2
Duration : 2 h 0 min
Bit rate : 96.0 kb/s
Channel(s) : 2 channels
Channel layout : L R
Sampling rate : 48.0 kHz
Frame rate : 46.875 FPS (1024 SPF)
Compression mode : Lossy
Delay relative to video : -83 ms
Stream size : 82.7 MiB (3%)
Title : Team SSX
Language : English
Default : No
Forced : No

Audio #2
ID : 3
Format : AC-3
Format/Info : Audio Coding 3
Commercial name : Dolby Digital
Codec ID : A_AC3
Duration : 2 h 0 min
Bit rate mode : Constant
Bit rate : 640 kb/s
Channel(s) : 6 channels
Channel layout : L R C LFE Ls Rs
Sampling rate : 48.0 kHz
Frame rate : 31.250 FPS (1536 SPF)
Bit depth : 16 bits
Compression mode : Lossy
Delay relative to video : -83 ms
Stream size : 552 MiB (23%)
Title : Team SSX
Language : Hindi
Service kind : Complete Main
Default : Yes
Forced : Yes





 :ss:














 :download:









9
Kala Shah Kala 2019 Punjabi Desi DVDSCR NEW Rip x264 AAC CiNEVooD Exclusive








Kala Shah Kala (2019)
2h 20min | Comedy | 14 February 2019 (USA)

The film shows the bygone era in the backdrop. Binnu Dhillon would be playing a dark complexion guy's role whereas Jordan Sandhu would be playing the completely contrasting character in the film.

Director: Amarjit Singh
Writers: Rakesh Dhawan (dialogue), Amarjit Singh
Stars: Sargun Mehta, Binnu Dhillon, Nirmal Rishi

File Name : Kala Shah Kala 2019 Punjabi DesiScr Rip 1GB.mp4
File Size : 1014.98 MB
Resolution : 640x300
Duration : 02:18:08
Video : MPEG-4 Visual (MPEG-4 Visual), 900 kb/s, 29.970 (30000/1001) FPS
Audio : AAC (AAC LC), 122 kb/s (CBR), 48.0 kHz, 2 channels, 1 stream





 :ss:









 :download:









10

Language: English, Russian | OS: x64 | File Size: 6.74 GB


Program version: 6.1.7601.24356 / v19.02.18
Interface language: English, Russian

Legalization: activation required! (for personal testing, use alternative means of activation)

System requirements:
Processor: 1 gigahertz (GHz) or more.
Hard disk space: 20 gigabytes (GB).

Description:
The assembly is made on the basis of the original image from MSDN. The language was integrated: English, updates up to February 12, 2019, and the .Net Framework 4.7.2 integrated.

Editions included in ISO:
Windows Small Business Server 2011 Standard - English
Windows Small Business Server 2011 Essentials - English
Windows Home Server 2011 - English
Windows MultiPoint Server 2011 Standard - English
Windows MultiPoint Server 2011 Premium - English

Windows Small Business Server 2011 Standard - Russian
Windows Small Business Server 2011 Essentials - Russian
Windows Home Server 2011 - Russian
Windows MultiPoint Server 2011 Standard - Russian
Windows MultiPoint Server 2011 Premium - Russian

What's New:
- Integrated updates on February 12, 2019;
- Integrated updates for Windows Defender (1.287.195.0 - Feb 17, 2019 07:06 PM UTC);
- Integrated .Net Framework 4.7.2 (enu-rus);

HOMEPAGE
Code: [Select]
http://www.microsoft.com/





Download From Rapidgator

Code: [Select]
http://rapidgator.net/file/edd9013a130da4be58a7445788c41d29
http://rapidgator.net/file/5a76eb8047c20571ee281d8a09d67824
http://rapidgator.net/file/7d3ca05c033c22d9b1d21cf77017b60f
http://rapidgator.net/file/bfdf685d417d751e8957c77723f8c808
http://rapidgator.net/file/b8c69f9daa0b79d9107d2d2f40a03578
http://rapidgator.net/file/704214d6e6637aa1d5a9ec4c06b4cb51
http://rapidgator.net/file/350a1cad848657afcf44f1c8f17e34ac




Download From Uptobox

Code: [Select]
http://uptobox.com/nqop96on1v7h
http://uptobox.com/m9mwwlj463oi
http://uptobox.com/6muf6v621ojt
http://uptobox.com/sp62fr27lcpr
http://uptobox.com/rujbuvh07bhz
http://uptobox.com/1jpxwpf80ey2
http://uptobox.com/ipxdvnxlrvef


Pages: 1 2 3 4 ... 10



Back to top